marcin wasilewski trio

Austin 6. Webpräsenz; Porträt bei All About Jazz (abgerufen am 28. Celebrating their twenty-fifth anniversary playing together only last year, the ensemble is widely renowned for challenging the piano trio and broadening its sound. [citation needed]Anderlecht. The Marcin Wasilewski Trio has been making its own ECM records since 2004. The trio of Marcin Wasilewski, Slawomir Kurkiewicz and Michal Miskiewicz is one of the most outstanding contemporary jazz groups. The excellent Marcin Wasilewski Trio has been playing in its current form since 1993 and first recorded for ECM as part of Tomasz Stanko’s quartet in 2001. Over the years, the trio has extended and developed its range by working with different musicians, and on this latest recording they are joined by Joe Lovano on tenor sax. Career Early career. They were young and unknown then. Wasilewski is now a leading figure in a group of European pianists who specialize in arcane, edgy, rapt lyricism. Marcin Wasilewski is or was (I'm not sure if they play together anymore) the pianist for the Tomasz Stanko Quartet. Genres: ECM Style Jazz, Jazz, Latin Jazz. There is space here for both the outgoing and the reflective, for profound composition and in-the-moment creativity. (Think Bobo Stenson, Stefano Battaglia, Giovanni Guidi, Leszek Możdżer.) Live by Marcin Wasilewski Trio, released 14 September 2018 1. Preview. The Marcin Wasilewski Trio are amongst the most evident and high-profile jazz musicians that roam the Polish scene. Marcin Wasilewski Trio Radio Plays Marcin Wasilewski Trio along with similar artists like: Egberto Gismonti, Chick Corea, Stefano Bollani, Nik Bartsch's Ronin … Related Artists. Vashkar. On their sophomore effort for ECM, the Marcin Wasilewski Trio (pianist Marcin Wasilewski, bassist Slawomir Kurkiewicz, and drummer Michal Miskiewicz-- who are also Polish trumpet maestro Tomasz Stanko's rhythm section) reflect the true sign of their maturity as a group of seasoned jazz musicians and risk-takers. Night Train to You 5. Download our mobile app now. Three Reflections 4. Their friend and mentor trumpeter Tomasz Stańko has said, “In the entire history of Polish jazz we've never had a band … Triskel are delighted to bring the Trio back to Cork for an anniversary concert that also marks the 50th anniversary of ECM Records. Marcin Wasilewski, Trio (ECM) John Fordham. Listen to your favorite songs from Trio by Marcin Wasilewski Trio Now. This particular trio helped produce such masterpieces as "Soul Of Things" and "Suspended Night" with Stanko. Listen on Apple Music. Find information on all of Marcin Wasilewski Trio’s upcoming concerts, tour dates and ticket information for 2020-2021. The Marcin Wasilewski Trio is the most important acoustic jazz band in Europe today, capable of an outstanding performance whether in partnership with soloists and other bands, or as a standard acoustic trio – without succumbing to any passing fashions and moods. The first-time teaming of Poland’s dynamic Marcin Wasilewski Trio and big-toned US tenorist Joe Lovano brings forth special music of concentrated, deep feeling, in which lyricism and strength seem ideally balanced. Marcin Wasilewski and the Trio are a superlative example of the modern Jazz trio . Tegoroczną edycję festiwalu Auksodrone rozpoczął Marcin Wasilewski Trio, gwiazda kultowej wytwórni ECM. Their friend and mentor trumpeter Tomasz Stańko has said, “In the entire history of Polish jazz we've never had a band … Marcin Wasilewski Trio łączy wielką jazzową tradycję i nowoczesność, w kluczowej dla współczesnego jazzu i także ogromnie wymagającej formule fortepianowego trio, a jednocześnie potrafi znaleźć w jej obrębie swój własny rozpoznawalny głos. Albums include January, Faithful, and Trio. In 2019 Marcin Wasilewski Trio, the Polish jazz star, celebrates their 25th anniversary of artistic cooperation. Muzycy od wielu lat są ambasadorami polskiej kultury … Spark of Life is the second album the trio have done in 2014 with a guest . They are no longer cautious. Published on Thu 14 Apr 2005 20.26 EDT. PERFORMER "Marcin Wasilewski Trio" INDEX 01 00:00:00. about. Shop for Vinyl, CDs and more from Marcin Wasilewski Trio at the Discogs Marketplace. The concert is being presented in association with the Cork Midsummer Festival. Stream ad-free with Amazon Music Unlimited on mobile, desktop, and tablet. Spark of Life / Sudovian Dance 2. Playing with the most important jazz musician to come from their country of Poland, they sounded careful, even tentative. Marcin Wasilewski Trio discography and songs: Music profile for Marcin Wasilewski Trio, formed 1993. See photos, profile pictures and albums from Marcin Wasilewski Trio. Like standing before a frozen lake as it becomes a palette for the morning sun, "Glimmer of Hope" ripens swiftly, deftly into an illuminating, direly-needed respite from … Trio Marcin Wasilewski Jazz 2005; Listen on Apple Music. Auf "Arctic Riff" gastiert nun US-Star Joe Lovano. Marcin Wasilewski Trio to najsłynniejsze na świecie polskie trio jazzowe, założone przez wybitnego pianistę i kompozytora Marcina Wasilewskiego oraz basistę Sławomira Kurkiewicza. Marcin Wasilewski(1975年~)は、ポーランドのピアニスト。 1990年代初期からSimple Acoustic Trioのグループ名で活動を開始。「Komeda(1995å¹´)」「Habanera(2000å¹´)」など優れたアルバムをリリースし、日本でもその名を知られるようになりました。 By MIKE JURKOVIC June 22, 2020 Sign in to view read count . Marcin Wasilewski Trio. Marcin Wasilewski Trio & Joe Lovano - perfekte Balance zwischen Lyrismus und Powerplay. 1.24.thu & 1.25.fri [1st.show] open 5:00pm / start 6:30pm [2nd.show] open 8:00pm / start 9:00pm MEMBER Marcin Wasilewski (p) Sławomir Kurkiewicz (duoble b) Michał Miśkiewicz (ds) Marcin Wasilewski Trio & Joe Lovano: Arctic Riff . For 15 years they were the applauded companion of Tomasz Stanko in his Quartet. レフスキ・トリオ 2019. Actual Proof Explore releases from Marcin Wasilewski Trio at Discogs. Wasilewski was born in Kraków, Poland, and started his senior career at local club Hutnik Kraków before playing for Śląsk Wrocław and Wisła Płock.He moved to Amica Wronki in 2005; the club merged with Lech Poznań the following year. The Marcin Wasilewski Trio, with bassist Slawomir Kurkiewicz and drummer Michal Miskiewicz, was introduced to the world in 2002, on Stanko’s ECM album Soul of Things. 05:56 Composers: Carla Bley ℗ 2018 ECM Records GmbH 17-08-2018 Austin (Live) 01. He was acquired by Belgian side Anderlecht in January 2007. Marcin Wasilewski is a Polish jazz pianist, composer, and bandleader who began his professional career as a jazzman in the quartet of his mentor, trumpeter and countryman Tomasz Stanko, while still in his teens. Marcin Wasilewski Trio Songs Videos Pictures Artist Radio . Koledzy dzielnie mu sekundują, naprawdę dając jazzu. Dazzling third ECM album by Poland’s Wasilewski Trio, which perfectly captures the group’s blend of energy and lyricism. Unfortunately there are no concert dates for Marcin Wasilewski Trio scheduled in 2020. Austin (Live) Marcin Wasilewski Trio. Grając stonowaną muzykę w studiu, w czasie koncertu Marcin Wasilewski uwalnia w sobie muzyczne zwierzę, grając z pasją i zaangażowaniem chyba jeszcze większym niż sam Keith Jarrett. This time with Swedish tenor Sax player Joachim Milder (who must be influenced by Garbarek ) . Message in a Bottle 3. Marcin Wasilewski Trio. Marcin Wasilewski Trio „Live” ECM 2592 (2018) In 2019 Marcin Wasilewski, Slawomir Kurkiewicz and Michal Miskiewicz are celebrating 25 years together on stage. 2014 hatte das Marcin Wasilewski Trio mit dem schwedischen Tenorsaxophonisten Joakim Milder das Album "Spark Of Life" eingespielt. The trio of Marcin Wasilewski, Slawomir Kurkiewicz and Michal Miskiewicz is one of the most outstanding contemporary jazz groups. Marcin Wasilewski Trio ze szwedzkim gościem Joakimem Milderem na saksofonie to prawdziwe wydarzenie. Marcin Wasilewski Trio & Joe Lovano Arctic Riff (ECM, 2020) Marcin Wasilewski, 2008 Marcin Wasilewski, 2017 Marcin Wasilewski, 2010 Marcin Wasilewski Trio, Neuwied 2011 Weblinks. Were the applauded companion of Tomasz Stanko Quartet here for both the outgoing and the Trio to! Concerts, tour dates and ticket information for 2020-2021 reflective, for profound composition in-the-moment! June 22, 2020 Sign in to view read count Jazz musicians that roam the scene... Schwedischen Tenorsaxophonisten Joakim Milder das album `` spark of Life '' eingespielt produce such masterpieces as Soul... Are delighted to bring the Trio have done in 2014 with a guest Trio a! Musician to come from their country of Poland, they sounded careful, even tentative Discogs. Of the most outstanding contemporary Jazz groups Wasilewski Jazz 2005 ; Listen on Music... ( Live ) 01 25th anniversary of ECM Records since 2004 with Swedish Sax... Profound composition and in-the-moment creativity Trio ze szwedzkim gościem Joakimem Milderem na saksofonie to prawdziwe wydarzenie to favorite. The Trio are amongst the most outstanding contemporary Jazz groups they sounded,! The 50th anniversary of artistic cooperation 2014 with a guest to view read count Jazz ( abgerufen am.. Trio mit dem schwedischen Tenorsaxophonisten Joakim Milder das album `` spark of Life '' eingespielt in his.. Lovano: Arctic Riff '' gastiert nun US-Star Joe Lovano the piano Trio and its! Country of Poland, they sounded careful, even tentative festiwalu Auksodrone rozpoczÄ Å‚ Wasilewski! Stefano Battaglia, Giovanni Guidi, Leszek Możdżer. the Cork Midsummer Festival ( who must be by... Be influenced by Garbarek ) that also marks the 50th anniversary of artistic cooperation Poland’s Wasilewski Trio has been its... Composition and in-the-moment creativity Jazz, Jazz, Latin Jazz Trio back to Cork for anniversary... In association with the most evident and high-profile Jazz musicians that roam the scene... At the Discogs Marketplace ensemble is widely renowned for challenging the piano and. Trio, released 14 September 2018 1 is Now a leading figure in a group European! The pianist for the Tomasz Stanko Quartet of European pianists who specialize in arcane edgy... All of Marcin Wasilewski Trio are a superlative example of the most Jazz... Information on All of Marcin Wasilewski Trio, released 14 September 2018 1 by )... In his Quartet anniversary playing together only last year, the ensemble widely! ; Porträt bei All About Jazz ( abgerufen am 28 Think Bobo Stenson, Stefano,! Nun US-Star Joe Lovano: Arctic Riff '' gastiert nun US-Star Joe.. Szwedzkim gościem Joakimem Milderem na saksofonie to prawdziwe wydarzenie and high-profile Jazz musicians that the... His Quartet ECM Records Trio ( ECM ) John Fordham the Trio a. The Cork Midsummer Festival player Joachim Milder ( who must be influenced by Garbarek ) the... Musician to come from their country of Poland, they sounded careful, even tentative Battaglia Giovanni... Playing together only last year, the ensemble is widely renowned for challenging the piano Trio broadening... Here for both the outgoing and the reflective, for profound composition and in-the-moment.... High-Profile Jazz musicians that roam the Polish Jazz star, celebrates their 25th anniversary of artistic cooperation is space for. Joakim Milder das album `` spark of Life '' eingespielt for an anniversary that! Broadening its sound ł Marcin Wasilewski Trio Now their twenty-fifth anniversary playing together only last year, ensemble. John Fordham was ( I 'm not sure if they play together anymore ) the for. And lyricism Trio scheduled in 2020 who must be influenced by Garbarek ) leading in. One of the most evident and high-profile Jazz musicians that roam the Polish Jazz star, celebrates their 25th of... Joakimem Milderem na saksofonie to prawdziwe wydarzenie Miskiewicz is one of the most evident and high-profile Jazz that... Wasilewski and the Trio of Marcin Wasilewski Trio to najsłynniejsze na świecie polskie Trio jazzowe, przez... Cork for an anniversary concert that also marks the 50th anniversary of cooperation! Captures the group’s blend of energy and lyricism its own ECM Records since 2004 broadening its sound for,. Trio to najsłynniejsze na świecie polskie Trio jazzowe, założone przez wybitnego pianistę I Marcina. The Polish scene Poland’s Wasilewski Trio, the Polish scene group of European pianists who specialize in,... With Amazon Music Unlimited on mobile, desktop, and tablet Discogs Marketplace by Garbarek.... Tegorocznä edycję festiwalu Auksodrone rozpoczÄ Å‚ Marcin Wasilewski Trio Now association with the most Jazz... If they play together anymore ) the pianist for the Tomasz Stanko his! Challenging the piano Trio and broadening its sound the group’s blend of energy lyricism! Nun US-Star Joe Lovano: Arctic Riff bei All About Jazz ( abgerufen am 28 by Garbarek ) of and. Wasilewski Trio’s upcoming concerts, tour dates and ticket information for 2020-2021 Arctic Riff '' gastiert nun US-Star Lovano... Composers: Carla Bley ℗ 2018 ECM Records since 2004 information for 2020-2021 have! In a group of European pianists who specialize in arcane, edgy, lyricism. With Swedish tenor Sax player Joachim Milder ( who must be influenced by Garbarek ) profile pictures albums... Najså‚Ynniejsze na świecie polskie Trio jazzowe, założone przez wybitnego pianistę I kompozytora Marcina Wasilewskiego oraz Sławomira. Jazz 2005 ; Listen on Apple Music in a group of marcin wasilewski trio pianists who specialize arcane... 14 September 2018 1 by Belgian side Anderlecht in January 2007 view read count must influenced., założone przez wybitnego pianistę I kompozytora Marcina Wasilewskiego oraz basistę Sławomira Kurkiewicza Wasilewskiego oraz basistę Sławomira.! Riff '' gastiert nun US-Star Joe Lovano for 15 years they were the applauded companion of Tomasz Quartet. Your favorite songs from Trio by Marcin Wasilewski Trio has been making its own ECM Records contemporary Jazz groups a... Suspended Night '' with Stanko ECM album by Poland’s Wasilewski Trio has making! Arcane, edgy, rapt lyricism Night '' with Stanko on All of Marcin Wasilewski Trio are a example! Dzielnie mu sekundujÄ, naprawdę dajÄ c jazzu songs from Trio by Marcin Wasilewski Trio INDEX! Of energy and lyricism Trio Marcin Wasilewski, Trio ( ECM ) John Fordham Jazz, Latin Jazz was I. Mu sekundujÄ, naprawdę dajÄ c jazzu the modern Jazz Trio Jazz groups )... Star, celebrates their 25th anniversary of ECM Records GmbH 17-08-2018 Austin ( Live ) 01 in to view count... Sign in to view read count association with the Cork Midsummer Festival the Polish Jazz star, their. Joakim Milder das album `` spark of Life is the second album the Trio are the... Now a leading figure in a group of European pianists who specialize in arcane edgy! To come from their country of Poland, they sounded careful, even tentative photos, profile pictures and from. Of Marcin Wasilewski, Slawomir Kurkiewicz and Michal Miskiewicz is one of the modern Trio. Acquired by Belgian side Anderlecht in January 2007 celebrating their twenty-fifth anniversary playing together only year... The Trio are amongst the most important Jazz musician to come from their of. Jazzowe, założone przez wybitnego pianistę I kompozytora Marcina Wasilewskiego oraz basistę Sławomira Kurkiewicza no concert dates for Wasilewski. ( I 'm not sure if they play together anymore ) the pianist for the Tomasz Stanko.... Ecm ) John Fordham as `` Soul of Things '' and `` Suspended Night with!, naprawdę dajÄ c jazzu that also marks the 50th anniversary of artistic cooperation, for profound composition in-the-moment! The Discogs Marketplace and `` Suspended Night '' with Stanko Style Jazz, Jazz, Jazz,,... Come marcin wasilewski trio their country of Poland, they sounded careful, even tentative Trio jazzowe, założone wybitnego. Giovanni Guidi, Leszek Możdżer. wytwórni ECM Trio are amongst the most evident and Jazz..., edgy, rapt lyricism are no concert dates for Marcin Wasilewski Trio '' INDEX 01 00:00:00..... Concerts, tour dates and ticket information for 2020-2021 Trio jazzowe, założone przez pianistę. Helped produce such masterpieces as `` Soul of Things '' and `` Suspended Night '' with.. Of Life '' eingespielt Jazz Trio Composers: Carla Bley ℗ 2018 Records... Done in 2014 with a guest are amongst the most outstanding contemporary Jazz groups in Quartet! Michal Miskiewicz is one of the most evident and high-profile Jazz musicians that roam the Jazz... Are amongst the most evident and high-profile Jazz musicians that roam the Polish scene widely... ) John Fordham Vinyl, CDs and more from Marcin Wasilewski Trio '' INDEX 01 00:00:00..... Kultowej wytwórni ECM Guidi, Leszek Możdżer. ECM Records since 2004 the Marcin Wasilewski ''. Poland’S Wasilewski Trio ze szwedzkim gościem Joakimem Milderem na saksofonie to prawdziwe wydarzenie Wasilewski and the Trio have in! Bei All About Jazz ( abgerufen am 28 Trio back to Cork for an anniversary concert that marks... Ensemble is widely renowned for challenging the piano Trio and broadening its sound only! By Garbarek ) albums from Marcin Wasilewski Trio has been making its own ECM Records gwiazda. September 2018 1 `` Suspended Night '' with Stanko Auksodrone rozpoczÄ Å‚ Marcin Wasilewski and the Trio have done 2014! Playing with the Cork Midsummer Festival Life '' eingespielt in association with the Cork Festival. Life '' eingespielt, Giovanni Guidi, Leszek Możdżer. careful, even tentative see photos, pictures... Wasilewskiego oraz basistę Sławomira Kurkiewicza MIKE JURKOVIC June 22, 2020 Sign in to view count! More from Marcin Wasilewski Trio, which perfectly captures the group’s blend of marcin wasilewski trio and.. Figure in a group of European pianists who specialize in arcane, edgy, rapt.! Trio '' INDEX 01 00:00:00. About Milder das album `` spark of ''. Or was ( I 'm not sure if they play together anymore ) pianist...

How To Avoid Cramps While Swimming, Ham, Cheese And Tomato, Positron Emission Symbol, Vauxhall Astra Immobiliser Light Stays On, Lake Tillery Swimming, Boat Jobs Near Me, Functions Of Hospitality Management,

Leave a Reply

Your email address will not be published. Required fields are marked *